Annabelle: Creation (2017) HDCAM Xvid - Koshara

seeders: 886
leechers: 300
updated:
Added by makintos13 in TV
Torrent verified.

Annabelle: Creation (2017) HDCAM Xvid - Koshara (Size: 1.37 GiB )
Annabelle: Creation (2017) HDCAM Xvid - Koshara.avi1.37 GiB

Description

screens:
 
http://imgmak.com/7aC
 
http://imgmak.com/7aK
 
http://imgmak.com/7aT

Format                                   : AVI
Format/Info                              : Audio Video Interleave
File size                                : 1.37 GiB
Duration                                 : 1 h 44 min
Overall bit rate                         : 1 867 kb/s
Writing application                      : VirtualDubMod 1.5.10.2 (build 2540/release)
Writing library                          : VirtualDubMod build 2540/release

Video
ID                                       : 0
Format                                   : MPEG-4 Visual
Format profile                           : Advanced [email protected]
Format settings, BVOP                    : 2
Format settings, QPel                    : No
Format settings, GMC                     : No warppoints
Format settings, Matrix                  : Default (MPEG)
Codec ID                                 : XVID
Codec ID/Hint                            : XviD
Duration                                 : 1 h 44 min
Bit rate                                 : 1 664 kb/s
Width                                    : 720 pixels
Height                                   : 272 pixels
Display aspect ratio                     : 2.647
Frame rate                               : 30.000 FPS
Color space                              : YUV
Chroma subsampling                       : 4:2:0
Bit depth                                : 8 bits
Scan type                                : Progressive
Compression mode                         : Lossy
language                                 : russian
Bits/(Pixel*Frame)                       : 0.283
Stream size                              : 1.22 GiB (89%)
Writing library                          : XviD 1.2.1 (UTC 2008-12-04)

Audio
ID                                       : 1
Format                                   : AC-3
Format/Info                              : Audio Coding 3
Format settings, Endianness              : Big
Codec ID                                 : 2000
Duration                                 : 1 h 44 min
Bit rate mode                            : Constant
Bit rate                                 : 192 kb/s
Channel(s)                               : 2 channels
Channel positions                        : Front: L R
Sampling rate                            : 48.0 kHz
Frame rate                               : 31.250 FPS (1536 spf)
Bit depth                                : 16 bits
Compression mode                         : Lossy
Stream size                              : 144 MiB (10%)
Alignment                                : Split accross interleaves
Interleave, duration                     : 33  ms (1.00 video frame)
Interleave, preload duration             : 500  ms
Service kind                             : Complete Main

Sharing Widget


Download torrent
1.37 GiB 
seeders:886
leechers:300
Annabelle: Creation (2017) HDCAM Xvid - Koshara



To share this torrent use the code below and insert it into comments, status messages, forum posts or your signature.

Torrent: Annabelle: Creation (2017) HDCAM Xvid - Koshara

Trackers

tracker name
udp://tracker.coppersurfer.tk:6969/announce
udp://9.rarbg.me:2710/announce
udp://p4p.arenabg.ch:1337/announce
udp://tracker.leechers-paradise.org:6969/announce
udp://eddie4.nl:6969/announce
udp://thetracker.org:80/announce
udp://tracker.coppersurfer.tk:6969
udp://explodie.org:6969/announce
udp://tracker.aletorrenty.pl:2710/announce
udp://9.rarbg.to:2710/announce
udp://torrent.gresille.org:80/announce
udp://tracker.opentrackr.org:1337/announce
udp://tracker.piratepublic.com:1337/announce
udp://tracker.sktorrent.net:6969/announce
udp://zer0day.ch:1337/announce
??Torrent compatible trackers list

Locations

name
KickassTorrents
Torrent hash: 4B9203F4BBF931F9F4B3A3805E27D67E052328C1

All Comments

audio
0/10
video
0/10
please, leave only comments related to that torrent
Sign In

seattle30
Russian? Wheres the Englisb?! Its out on RedBox now!
seattle30
Russian? NA...
seattle30
Hey.....Russian........mmmm-nah
Report a bug Open chat